โหลดหนังฟรี โปรแกรมฮิต ฟรีดาวน์โหลด หนังใหม่ ซูม ชนโรง 3D HD DVD VCD MASTER ZOOM หนังฟรี อัพเดททุกวันทุกลมหายใจ



แจกโปรแกรมไว้ไรท์ไฟล์.MKV  (Mini-HD)   ลงแผ่น DVD + Key Serial





หลายๆคนคงอยากที่จะนำไฟล์วีดิ โอ ความละเอียดสูงๆทั้งด้านภาพและเสียงไปดูในเครื่องเล่นกัน แต่ก็ไม่รู้จะทำอย่างไร เพราะต้องแปลงไฟล์แล้วคุณภาพจะลดลงมาก!  เซงไปเลย..
แต่มันสามารถทำได้ครับ!
โดยใช้โปรแกรม ConvertXtoDVD!
หน้าตาโปรแกรมจะเป็นแบบนี้ครับ

เมื่อได้แล้วมาเริ่มกันเล้ย!~*
1. เลือกไฟล์ที่คุณต้องการจะนำลง DVD โดยไปที่ File > Add Video

2. เลือกไฟล์ที่ท่านต้องการ! ผมจะเอา Avatar แล้วกัน 

แล้วจะได้หน้าตาแบบนี้นะครับ!

3. ไปที่ setting เพื่อปรับแต่งข้อมูล DVD เราครับ เข้าได้ 2 ทางนะครับจะอธิบายนะครับ! คร่าวๆนะครับ สามารถศึกษาเองได้นะครับ

-ช่อง general : สามารถเปลี่ยนธีมของโปรแกรม! และเลือกสถานที่ๆโปรแกรมจะทำงาน โปรดเลือกที่มีพื้นที่ฮาร์ดดิสว่างนะครับ
-ช่อง encoding :เป็นการปรับแต่งการเข้ารหัสของแผ่น DVD ที่คุณจะไรท์ แต่แนะนำให้เปลี่ยน Target size พอครับ ที่เหลือตามโปรแกรม
-ช่อง DVD Specificaton : เป็นการกำหนดข้อจำกัดของ DVD เช่น อัตราส่วนของขนาดภาพ 4:3 , 16:9
-ช่อง Video Processing : เป็นการปรับแต่งระบบปฏิบัติการขณะดำเนินการ แนะนำให้เหมือนเดิม เปลี่ยนตรง multicore processor พอครับ เป็นการปรับว่าขณะ create ไฟล์ต่างๆ จะใช้ CPU กี่หัว เข้าใจนะครับ
-ช่อง Burning : ปรับแต่งการไรท์แผ่น เลือกไดร์ฟที่ไรท์แผ่น ความเร็ว ชื่อ DVD
-ช่อง language : เป็นภาษาโปรแกรมครับ
-ช่อง chapter : เคยดู DVD ที่ซื้อมาไหม ที่เป็น chapter เลือกเป็นช่วงๆ กำหนดระยะเวลาเอาครับ ถ้าไม่ต้องการเอาเครื่องหมายถูกออก!
-ช่อง subtitle : ปรับแต่งซับไตเติลหนังครับ เลือกซับที่เลือกอัตโนมัติ! เข้าไปที่ setting อีกจะเป็นการปรับแต่งซับอีกที หวังว่ากดไปแล้วจะเข้าใจเอง 
-ช่อง sound events แนะนำไม่ต้องปรับแต่งใดๆ
-ช่อง Audio : ปรับแต่งเสียงในหนังครับ! ตรง Audio Format แนะนำให้ติ้กตรงดรที่สุดไว้ครับ มันจะออกมาดีที่สุดเท่าที่ในไฟล์เรามี และระดับความเน้นของเสียงครับในช่อง level เช่นเสียงนิ่ม หนัก! แนะนำ keep source
-ช่อง DVD Menu : ช่องปรับแต่งหน้าเมนูเพื่อเลือกเสียง ซับ Chapter นั่นเอง สามารถเลือกหน้าตาตอนเลือก menu ได้ครับจะยังไง หรือจะไม่มี หรือจะหาโหลดเพิ่มก็ได้ครับ ไฟล์จะเป็น.ini
หากจะปรับแต่งใดๆเพิ่มเติม ควรรู้ข้อมูลของไฟล์หนังด้วยนะครับ
เช่น! (ของเรื่องกะปิลิงจ๋อไม่หลอกเจ้า)
Format : Matroska
File size : 3.06 GiB
Duration : 1h 36mn
Overall bit rate : 4 562 Kbps
Encoded date : UTC 2011-03-03 21:01:38
Writing application : mkvmerge v3.4.0 (‘Rapunzel’) built on May 15 2010 09:38:20
Writing library : libebml v0.8.0 + libmatroska v0.9.0
Video
ID : 1
Format : AVC
Format/Info : Advanced Video Codec
Format profile : High@L3.1
Format settings, CABAC : Yes
Format settings, ReFrames : 3 frames
Muxing mode : Container profile=Unknown@3.1
Codec ID : V_MPEG4/ISO/AVC
Duration : 1h 36mn
Bit rate : 4 176 Kbps
Width : 1 280 pixels
Height : 720 pixels
Display aspect ratio : 16:9
Frame rate : 25.000 fps
Color space : YUV
Chroma subsampling : 4:2:0
Bit depth : 8 bits
Scan type : Progressive
Bits/(Pixel*Frame) : 0.181
Stream size : 2.74 GiB (90%)
Writing library : x264 core 79 r1342kMod e8501ef
Encoding settings : cabac=1 / ref=3 / deblock=1:0:0 / analyse=0×3:0 / me=umh / subme=7 / psy=1 /
psy_rd=1.0:0.0 / mixed_ref=0 / me_range=16 / chroma_me=0 / trellis=1 / 8x8dct=1 / cqm=0 / deadzone=21,11
/ chroma_qp_offset=-2 / threads=3 / nr=0 / decimate=0 / mbaff=0 / constrained_intra=0 / bframes=3 /
b_pyramid=0 / b_adapt=1 / b_bias=0 / direct=3 / wpredb=1 / wpredp=2 / keyint=250 / keyint_min=25 /
scenecut=40 / rc_lookahead=40 / rc=2pass / mbtree=1 / bitrate=4176 / ratetol=1.0 / qcomp=0.60 / qpmin=10
/ qpmax=51 / qpstep=4 / cplxblur=20.0 / qblur=0.5 / ip_ratio=1.40 / aq=1:1.00
Audio
ID : 2
Format : AC-3
Format/Info : Audio Coding 3
Mode extension : CM (complete main)
Codec ID : A_AC3
Duration : 1h 36mn
Bit rate mode : Constant
Bit rate : 384 Kbps
Channel(s) : 2 channels
Channel positions : Front: L R
Sampling rate : 48.0 KHz
Stream size : 264 MiB (8%)
4.เมื่อปรับแต่งใดๆได้ตามที่ต้องการแล้ว เลือกที่ Convert เลยครับ!

5.รอครับ โปรแกรมจะสร้างไฟล์สำหรับ DVD และข้อมูลเกี่ยกับหนัง เพื่อพร้อที่จะไรท์ลง DVD สามารถดูได้จากสถานที่ที่เลือกไว้ใน setting ช่อง general

นี่ครับสร้างไปได้ 3% จะเร็วแค่ไหนอยู่ที่ CPU นะครับ  ช่วงนี้ใส่แผ่นเปล่ารอเลยครับ!

6.เมื่อมันสร้างไฟล์ต่างๆเสร็จ มันจะไรท์ลงแผ่นให้อัตโนมัติ! รอประมาณ 10 นาทีเป็นอันเสร็จครับ! 
7.ใส่เรื่องเล่น DVD โลด!~  ภาพไม่ชัดนะครับเอากล้องห่วยๆถ่าย!  

แหะๆ ลืมเปลี่ยนชื่อ Disc เป็น Avatar ไม่ว่ากันนะครับ ไรท์ให้เพื่อนเรื่องนั้นลืมเปลี่ยน
Credit : -v4mp!r3z_+ 
*** Update ***
ตรง video preview นั้นจะแสดงผลภาพที่ออกมาบนจอทีวีเลยครับ ในภาพคือ 16:9 เป็น WindScreen
ผลที่ออกมา คือมี ขอบดำ บน ล่าง ตาม preview หากอยากดูเต็มจอ แบบความคมชัดไม่หายก็สามารถทำได้ครับ
ปรับที่ setting ที่ video Processing / video resize ปรับเป็น Pan-Scan เท่านี้ก็ได้ภาพแบบเต็มจอไม่มีขอบดำบนล่าง มาบดบังแล้วครับ

By : JAKKK2270738
เอาภาพ / Clip Vedio มาเป็น Background Menu
1. เลือกไฟล์หนังที่ต้องการ

2. เลือกหน้าตาเมนูให้เรียบร้อย อย่างที่บอกนะครับมันโหลดเพิ่มได้หาดูเอาครับมันเหมือน theme

3. แล้วกลับมาที่หน้า Home นะครับ แล้วเลือกที่ Titleset / Titleset Menu Parameters

4. เลือกที่ Background Video/Image

5. จะเห็นมี 3 อัน! เลือกหน้าที่ต้องการใส่รูปเลยครับจะใส่เป็นอะไร ผมเลือก Menu แล้วกัน ดับเบิ้ลคลิ้กเลยครับ

6. เลือกที่ Use a Custom file (Video or still Image เลยครับ) สามารถเลือกวีดิโออะไรก็ได้ใส่ หรือ เป็นภาพนิ่งครับ

7. เลือกรูปครับ

8. เลือกความสว่างของรูปในช่อง 100 แล้วกด apply (เครื่องหมายถูก) เลยครับ

9. ได้พื้นหลังแล้วครับ :ew: รูปผมใหญ่ไปหน่อยครับ! 

เครดติ : noomzoom

0 ความคิดเห็น:

แสดงความคิดเห็น